Быстрый поиск

Расширенный

Имя пользователя

Не зарегистрированы? | Забыли пароль?

Реклама
























Rapidgator.net



counter
 
 

Go Back   Форум ПинкПони - Клуб знатоков порно и секс видео > Скачать Порно / Download Porno > Классический секс / Clasic sex

Классический секс / Clasic sex Класика.

Reply
Old 16.04.2012, 13:09   #1
buomkham
Местный
 
buomkham's Avatar
 
Posts: 38,842
Сказал(а) спасибо: 0
Поблагодарили 0 раз(а) в 0 сообщениях
buomkham пока не определено
Default La Moglie Vergine - The Virgin Wife (1977)

La Moglie Vergine - The Virgin Wife (1977)



File size : 670 MiB
Duration : 1h 30mn

Complete name : La Moglie Vergine - The Virgin Wife 1977 ~ Hot Classic Classic .avi
Format : AVI
Format/Info : Audio Video Interleave
File size : 670 MiB
Duration : 1h 30mn
Overall bit rate : 1 039 Kbps

Video
ID : 0
Format : MPEG-4 Visual
Format settings, BVOP : 1
Format settings, QPel : No
Format settings, GMC : No warppoints
Format settings, Matrix : Default (H.263)
Muxing mode : Packed bitstream
Codec ID : DX50
Codec ID/Hint : DivX 5
Duration : 1h 30mn
Bit rate : 899 Kbps
Width : 528 pixels
Height : 336 pixels
Display aspect ratio : 1.571
Frame rate : 29.970 fps
Color space : YUV
Chroma subsampling : 4:2:0
Bit depth : 8 bits
Scan type : Progressive
Compression mode : Lossy
Bits/(Pixel*Frame) : 0.169
Stream size : 580 MiB (87%)
Writing library : DivX 5.1.1 (Maupiti) (UTC 2003-11-19)

Audio
ID : 1
Format : MPEG Audio
Format version : Version 1
Format profile : Layer 3
Codec ID : 55
Codec ID/Hint : MP3
Duration : 1h 30mn
Bit rate mode : Constant
Bit rate : 128 Kbps
Channel(s) : 2 channels
Sampling rate : 44.1 KHz
Compression mode : Lossy
Stream size : 82.6 MiB (12%)
Alignment : Split accross interleaves
Interleave, duration : 33 ms (1.00 video frame)
Interleave, preload duration : 500 ms








http://freakshare.com/files/ydypzn84...ovies.avi.html

http://www.netload.in/datei4jEAni6OKn/HdpornerLa Moglie Vergine - The Virgin Wife 1977 ~ Hot Classic Classic Downmovies.avi.htm

http://extabit.com/file/27au2o9skwx48/HdpornerLa Moglie Vergine - The Virgin Wife 1977 ~ Hot Classic Classic Downmovies.avi

HdpornerLa Moglie Vergin... Classic Downmovies.avi

http://depositfiles.com/files/ik8n47pyz
  Reply With Quote
 
Reply

Thread Tools

Posting Rules
You may not post new threads
You may not post replies
You may not post attachments
You may not edit your posts

BB code is On
Smilies are On
[IMG] code is On
HTML code is Off
Trackbacks are Off
Pingbacks are Off
Refbacks are Off

Forum Jump